Торрент файл
скачать торрент магнет ссылка Добавлен: 09 май 2018, 11:12
Размер: 4.95 ГБ
Сидеров: 0
Личеров: 0
Статус: (salma3)
Автор

СообщениеДобавлено: 09 май 2018, 11:12 

Не в сети
Супермодератор
Аватара пользователя
Дата регистрации:
15 фев 2012, 16:44
Возраст: 28
Спасибо: 7163 / 2147
Сообщения: 61631
Год выхода: 1959
Страна: СССР
Студия: Мосфильм, Министерство Кинематографии
Жанр: Военный, драма, мелодрама
Продолжительность: 01:27:55
Перевод: Не требуется
Режиссер: Григорий Чухрай
В ролях: Владимир Ивашов, Жанна Прохоренко, Антонина Максимова, Евгений Евстигнеев, Николай Крючков, Георгий Юматов, Владимир Кашпур, Евгений Урбанский, Нина Меньшикова, Любовь Соколова, Валентина Ананьина, Всеволод Санаев, Геннадий Юхтин,
Мария Кремнева, Валентина Маркова, Евгений Тетерин, Владимир Покровский, Валентин Абрамов, Валентин Брылеев
О фильме: Гениальная картина. Солдат (Ивашов) получает двухдневный отпуск за подбитые танки и отправляется к матери починить крышу. По пути в родную деревню он помогает спрятаться в вагоне красивой девушке (Жанна Прохоренко) и добраться до ее станции. Домой он заскочил лишь на минуту, успел обнять мать, уехал на фронт и не вернулся.Бесхитростная история о молодом солдате, признана одним из лучших кинопроизведений, посвященных Великой Отечественной войне. Этот выдающийся фильм вошел в золотой фонд кинематографа, с триумфом обойдя экраны планеты.

Кодек: х264
Качество: BDRip 720p
Видео: MPEG-4 AVC, 7600 Кбит/с, 984x718
Аудио: АС3,6 ch, 448 Кбит/с
Субтитры: Нет
Главы: Есть
x264 [info]: frame I:699 Avg QP:16.67 size:150972
x264 [info]: frame P:29661 Avg QP:18.97 size: 75322
x264 [info]: frame B:96131 Avg QP:20.30 size: 27809
Общее
Уникальный идентификатор : 197518190782114608557206776014678530853 (0x94989EAC72AB58AAA00005CA69901B25)
Полное имя : E:Мои рипыБаллада о солдате 1959_BDRip 720p_KORSAR.mkv
Формат : Matroska
Версия формата : Version 2
Размер файла : 4,95 Гбайт
Продолжительность : 1 ч. 27 м.
Общий поток : 8049 Кбит/сек
Дата кодирования : UTC 2018-05-06 20:01:07
Программа кодирования : mkvmerge v5.8.0 ('No Sleep / Pillow') built on Sep 2 2012 15:37:04
Библиотека кодирования : libebml v1.2.3 + libmatroska v1.3.0
Видео
Идентификатор : 1
Формат : AVC
Формат/Информация : Advanced Video Codec
Профиль формата : [email protected]
Настройки формата : CABAC / 11 Ref Frames
Параметр CABAC формата : Да
Параметр RefFrames формата : 11 кадров
Идентификатор кодека : V_MPEG4/ISO/AVC
Продолжительность : 1 ч. 27 м.
Битрейт : 7600 Кбит/сек
Ширина : 984 пикселя
Высота : 718 пикселей
Соотношение сторон : 1,370
Режим частоты кадров : Постоянный
Частота кадров : 23,976 (24000/1001) кадра/сек
Цветовое пространство : YUV
Субдискретизация насыщенности : 4:2:0
Битовая глубина : 8 бит
Тип развёртки : Прогрессивная
Бит/(Пиксели*Кадры) : 0.449
Размер потока : 4,57 Гбайт (92%)
Библиотека кодирования : x264 core 152 r2851kMod ba24899
Настройки программы : cabac=1 / ref=11 / deblock=1:-2:-2 / analyse=0x3:0x113 / me=umh / subme=11 / psy=1 / fade_compensate=0.00 / psy_rd=1.05:0.12 / mixed_ref=1 / me_range=48 / chroma_me=1 / trellis=2 / 8x8dct=1 / cqm=0 / deadzone=21,11 / fast_pskip=0 / chroma_qp_offset=-3 / threads=12 / lookahead_threads=3 / sliced_threads=0 / nr=0 / decimate=0 / interlaced=0 / bluray_compat=0 / constrained_intra=0 / bframes=16 / b_pyramid=2 / b_adapt=2 / b_bias=0 / direct=3 / weightb=1 / open_gop=0 / weightp=2 / keyint=240 / keyint_min=23 / scenecut=40 / intra_refresh=0 / rc_lookahead=40 / rc=2pass / mbtree=0 / bitrate=7600 / ratetol=1.0 / qcomp=0.60 / qpmin=0 / qpmax=39 / qpstep=4 / cplxblur=20.0 / qblur=0.5 / vbv_maxrate=50000 / vbv_bufsize=62500 / nal_hrd=none / filler=0 / ip_ratio=1.25 / pb_ratio=1.30 / aq=1:1.00
Язык : English
Default : Да
Forced : Нет
Цветовой диапазон : Limited
Основные цвета : BT.709
Характеристики трансфера : BT.709
Коэффициенты матрицы : BT.709
Аудио
Идентификатор : 2
Формат : AC-3
Формат/Информация : Audio Coding 3
Параметр Endianness формата : Big
Идентификатор кодека : A_AC3
Продолжительность : 1 ч. 27 м.
Вид битрейта : Постоянный
Битрейт : 448 Кбит/сек
Каналы : 6 каналов
Расположение каналов : Front: L C R, Side: L R, LFE
Частота : 48,0 КГц
Частота кадров : 31,250 кадров/сек (1536 SPF)
Битовая глубина : 16 бит
Метод сжатия : С потерями
Размер потока : 282 Мбайт (6%)
Язык : Russian
Default : Да
Forced : Нет
Меню
00:00:00.000 : en:Chapter 1
00:08:09.489 : en:Chapter 2
00:14:30.869 : en:Chapter 3
00:21:58.317 : en:Chapter 4
00:28:28.706 : en:Chapter 5
00:37:16.234 : en:Chapter 6
00:46:02.760 : en:Chapter 7
00:53:32.209 : en:Chapter 8
01:02:45.762 : en:Chapter 9
01:10:58.254 : en:Chapter 10
01:17:56.671 : en:Chapter 11
01:22:50.966 : en:Chapter 12





_________________
Проголосуй за трекер Открытый торрент трекер - RUS-MEDIA.ORG

Проголосуй Открытый торрент трекер - RUS-MEDIA.ORG


Вернуться к началу
 Профиль Отправить личное сообщение  
 
   Похожие торренты   Автор   Торрент   Размер 
В этой теме нет новых непрочитанных сообщений. Баллада о солдате [военный, драма, мелодрама, 1959] BDRip

salma3

12 | 6

1.45 ГБ

В этой теме нет новых непрочитанных сообщений. Баллада о солдате [военный, драма, мелодрама, 1959] BDRip-AVC

salma3

9 | 8

2.12 ГБ

В этой теме нет новых непрочитанных сообщений. Баллада о Кэйбле Хоге / The Ballad of Cable Hogue [драма, мелодрама, комедия, вестерн, 1970] BDRip 720p, Mvo

salma3

58 | 16

5.62 ГБ

В этой теме нет новых непрочитанных сообщений. Операция "Нижняя юбка" / Operation Petticoat [мелодрама, комедия, военный, 1959] BDRip, Mvo

salma3

0 | 0

1.45 ГБ

В этой теме нет новых непрочитанных сообщений. Баллада о Кэйбле Хоге / The Ballad of Cable Hogue [драма, мелодрама, комедия, вестерн, 1970] BDRip-AVC, Mvo

salma3

40 | 13

2.18 ГБ

В этой теме нет новых непрочитанных сообщений. Баллада о Кэйбле Хоге / The Ballad of Cable Hogue [драма, мелодрама, комедия, вестерн, 1970] BDRip, Mvo

salma3

96 | 9

1.45 ГБ

В этой теме нет новых непрочитанных сообщений. Баллада о Кэйбле Хоге / The Ballad of Cable Hogue [драма, мелодрама, комедия, вестерн, 1970] BDRip, Mvo

salma3

56 | 6

2.2 ГБ


Начать новую тему Ответить на тему  [ 1 сообщение ] 




Для Мосгорсуда, Роскомнадзора и рекламодателей:: mosgorsud-torrent[собачка]yandex.ru
cron